#TITLE:Blues;
#SUBTITLE:Dead Master;
#ARTIST:Jam Hsiao;
#TITLETRANSLIT:;
#SUBTITLETRANSLIT:;
#ARTISTTRANSLIT:;
#CREDIT:;
#BANNER:bn.png;
#BACKGROUND:bg.png;
#LYRICSPATH:;
#CDTITLE:cdtitle.png;
#MUSIC:Blues.mp3;
#OFFSET:0.000;
#SAMPLESTART:70.312;
#SAMPLELENGTH:23.437;
#SELECTABLE:YES;
#BPMS:0.000=192.003,5.000=191.990,6.000=192.003,11.000=191.990,12.000=192.003,16.000=191.990,17.000=192.003,22.000=191.990,23.000=192.003,28.000=191.990,29.000=192.003,33.000=191.990,34.000=192.003,39.000=191.990,40.000=192.003,44.000=191.990,45.000=192.003,50.000=191.990,51.000=192.003,56.000=191.990,57.000=192.003,61.000=191.990,62.000=192.003,67.000=191.990,68.000=192.003,72.000=191.990,73.000=192.003,78.000=191.990,79.000=192.003,84.000=191.990,85.000=192.003,89.000=191.990,90.000=192.003,95.000=191.990,96.000=192.003,100.000=191.990,101.000=192.003,106.000=191.990,107.000=192.003,112.000=191.990,113.000=192.003,117.000=191.990,118.000=192.003,123.000=191.990,124.000=192.003,129.000=191.990,130.000=192.003,131.000=96.002,135.000=95.998,136.000=96.002,140.000=95.998,141.000=96.002,144.000=95.998,145.000=96.002,149.000=95.998,150.000=96.002,153.000=95.998,154.000=96.002,158.000=95.998,159.000=96.002,163.000=95.998,164.000=96.002,167.000=95.998,168.000=96.002,172.000=95.998,173.000=96.002,175.500=48.000,175.833=192.073,176.000=191.990,176.500=96.009,176.750=48.001,177.000=192.017,177.500=96.002,178.000=192.003,186.000=191.990,187.000=192.003,195.000=191.990,196.000=192.003,204.000=191.990,205.000=192.003,214.000=191.990,215.000=192.003,223.000=191.990,224.000=192.003,232.000=191.990,233.000=192.003,242.000=191.990,243.000=192.003,251.000=191.990,252.000=192.003,259.000=191.990,260.000=192.003,268.000=191.990,269.000=192.003,278.000=191.990,279.000=192.003,287.000=191.990,288.000=192.003,296.000=191.990,297.000=192.003,306.000=191.990,307.000=192.003;
#STOPS:;
#BGCHANGES:0.000=Blues.avi=1.000=1=1=0,
99999=-nosongbg-=1.000=0=0=0 // don't automatically add -songbackground-
;
// cache tags:
#FIRSTBEAT:1.000;
#LASTBEAT:308.750;
#SONGFILENAME:Songs/9you/Blues/Blues.sm;
#HASMUSIC:1;
#HASBANNER:0;
#MUSICLENGTH:112.623;
// end cache tags

//---------------dance-single - ----------------
#NOTES:
     dance-single:
     :
     Hard:
     29:
     1.000,1.000,1.000,0.950,0.311,677.000,306.000,107.000,0.000,173.000:
0000
0000
0020
0000
0000
0000
1031
0010
,
1100
0001
0100
0001
1010
0100
0001
1000
,
0101
0010
1000
0010
1001
0100
1010
0100
,
0011
0100
1000
0010
1001
0100
0001
0100
,
1010
0100
0010
1000
0011
0100
1012
0100
,
1100
0010
0100
1000
0110
1000
0213
1000
,
1001
0010
0010
1000
0011
1000
1321
1000
,
0101
0000
1000
0000
0001
0000
0100
0000
1001
0000
0100
0000
1030
1000
0010
0000
,
0100
0000
0010
0010
1000
0000
0001
0010
0100
0100
0010
0010
2001
0000
0100
0000
,
0011
3021
1000
0100
1031
0100
1012
0100
,
1010
0213
1000
0010
1301
0010
1201
0010
,
1010
0321
1000
0001
1130
0001
0210
0001
,
1010
0321
1000
0001
1130
0010
1201
0010
,
0011
1302
0010
0100
1013
0100
1102
0010
,
1100
0123
1000
0001
1130
0101
1012
0100
,
1100
0013
0100
0010
1100
0001
2010
0101
,
0010
0000
0100
0000
0011
0000
0100
0001
0010
0000
0000
0000
3121
0000
1000
0000
,
0101
1230
0010
0001
1302
1010
1203
0010
,
1001
0312
0100
0010
1203
1010
2310
0100
,
0011
3120
0001
1000
0132
1010
0213
1000
,
0011
1000
0010
0001
2310
0101
3121
0001
,
0101
2130
0010
0100
3012
0110
2013
0100
,
0110
3012
1000
0100
2013
0101
3121
0100
,
1100
0000
0001
0000
0100
0000
1000
0000
0101
0000
1000
0000
1030
0001
1010
0100
,
0010
1000
0001
0100
1010
0000
0101
0000
0110
0000
1000
0000
0021
0000
1000
0000
,
0101
2130
0010
0100
3201
0011
1322
0100
,
1100
0233
0010
1000
0321
1001
0231
1000
,
0011
1302
0010
0100
2013
0101
3120
0001
,
0101
1230
0010
1000
0312
1010
1123
0100
,
1001
0231
1000
0010
2310
0101
3112
0100
,
0110
0000
2013
0000
0100
0000
0001
0000
3210
0000
0001
1000
1321
0000
0101
0000
,
1001
0000
0101
0000
1100
0000
1001
0000
0101
0000
1100
0000
0130
0100
0001
0000
,
1000
0000
0010
0010
1000
0000
0010
0010
1000
1000
0001
0001
0100
0100
0001
0000
,
1100
0000
0001
0000
1000
0100
0001
0000
1100
0101
0010
0001
1000
1000
0010
0000
,
0101
0010
1000
0000
0010
0010
0201
0000
1301
2010
0000
0000
3101
0001
0010
0000
,
1100
0010
0100
0001
0100
0000
1020
0000
1031
0000
0120
0000
1030
0100
0011
0000
,
1100
0001
0010
0100
0001
0100
1000
0010
1100
0001
0220
0000
1331
0001
0010
0000
,
1100
0010
0001
0000
0100
0001
1010
0000
0101
1000
0010
0001
1200
0000
0310
0000
,
1100
0000
0101
0000
1010
0000
0202
0000
1313
0001
1000
0010
1001
0010
0101
0000
,
0011
0000
1010
0000
0110
0000
2002
0000
3113
0100
0010
1000
0001
0001
0100
0000
,
1100
0001
0010
0001
1000
0010
0100
0001
1100
0001
1010
0101
1010
0000
0101
0000
,
0011
1010
0001
0001
1100
0101
1010
0101
,
0011
1010
0100
0010
1100
0101
1010
1001
,
0011
0000
0110
0000
1000
0000
0010
0000
1100
0000
0201
0000
0010
0010
1001
0000
,
0000
0000
0010
0010
0000
0000
0010
0010
1301
0000
0100
0000
0011
0000
1001
0000
,
1010
0100
0011
1000
0010
0100
1010
0001
,
1010
0100
0011
1000
0010
0100
1010
0100
,
0001
1000
0110
0001
1000
0010
1001
0100
,
1000
0010
0101
1000
0010
1000
0101
0010
,
1001
0100
0011
0100
0010
0100
1001
0010
,
0101
0010
1100
0010
0100
0001
1010
0100
,
1001
0100
1010
0100
1001
0100
0011
1000
,
0010
0010
1000
0000
0001
0000
0100
0100
0010
0000
1000
0100
0001
0001
1000
1000
,
0101
1010
0011
1000
0110
1001
1100
0001
,
1010
0101
1100
0010
1001
1010
0101
1000
,
0101
1001
0011
1000
1010
1001
1100
0010
,
0100
0010
1001
1100
0101
1001
0110
1000
,
1001
0101
0011
1001
0101
1010
0101
1000
,
1010
0101
1100
1001
0101
1010
0110
0100
,
1001
0010
1100
0010
0100
0001
0110
1000
,
0010
0000
1001
0000
0120
0000
0000
0000
1100
0000
0001
1000
0100
0000
0000
0000
,
2131
0010
0101
3120
0001
1000
0231
1000
,
1321
0100
1100
2031
0100
0010
3102
0010
,
1213
0001
1010
0321
0100
1000
0132
0010
,
1203
0001
1010
0001
1000
0001
1320
0001
,
2131
0010
0110
3012
0100
0010
1203
0010
,
2301
0100
0011
3210
1000
0010
2301
0100
,
3121
0101
1100
0101
1001
0101
1100
1001
,
1030
0100
0011
1000
0100
0000
0001
0010
1000
0000
0010
0100
0001
0010
1000
0100
,
1012
0100
1010
0213
1000
0010
1320
0100
,
2132
0100
0110
3123
0001
0100
1032
0100
,
1023
0001
1100
0132
0010
1000
0213
1000
,
0321
0100
1001
2130
0010
0100
3201
0010
,
1321
0100
1001
1230
0010
0001
1320
0100
,
1132
0100
1010
0123
0001
0100
1032
0010
,
1203
0010
0011
1000
0010
1000
1001
0010
,
0310
0000
1100
0000
0001
0000
0100
0000
0011
0000
1010
0001
1000
0100
1000
0010
,
0100
0001
1000
0010
0000
0000
0000
0000
0000
0000
0000
0000
0000
0000
0000
0000
;

//---------------dance-single - ----------------
#NOTES:
     dance-single:
     :
     Medium:
     1:
     0.639,0.854,0.018,0.542,1.000,441.000,2.000,61.000,0.000,1.000:  // measure 1
0000
0000
0000
0000
0000
0000
2000
0000
0000
0000
0000
0000
0000
3000
0010
0000
,  // measure 2
0100
0000
0001
0000
0100
0000
0010
0000
1000
0000
0010
0000
0100
0001
0000
0100
,  // measure 3
0000
0010
0000
1000
0000
0010
0000
0100
0000
0001
0100
0000
0000
0010
0000
1000
,  // measure 4
0000
0001
0000
0100
0000
0010
0100
0000
0000
0010
1000
0000
0000
0001
0000
0100
,  // measure 5
0000
0010
0100
0000
0010
0000
1000
0000
0000
0001
0000
0100
0000
0010
0000
0100
,  // measure 6
0000
0001
0000
1000
0000
0010
0000
0100
0000
0010
0100
0000
0000
0001
0000
0100
,  // measure 7
0000
0010
0000
1000
0000
0010
0000
0100
0000
0001
0000
0100
0000
0010
0000
1000
,  // measure 8
0000
0010
0000
0100
0000
0001
0000
0100
0000
0010
0000
1000
0000
0010
0000
0000
,  // measure 9
0000
0000
0000
0010
0000
0000
0000
0010
0000
0000
0000
0100
0000
0010
0000
1000
,  // measure 10
0001
0000
0000
0100
0010
0000
0100
0000
0000
0010
0100
0000
0000
0010
1000
0000
,  // measure 11
0000
0001
0000
0100
0000
0010
0100
0000
0010
0000
1000
0000
0000
0001
0100
0000
,  // measure 12
0010
0000
0100
0000
0010
0000
1000
0000
0001
0000
0100
0000
0000
0010
0100
0000
,  // measure 13
0001
0000
0000
1000
0000
0010
0000
0100
0000
0010
0000
0100
0000
0001
0000
1000
,  // measure 14
0000
0010
0000
0100
0000
0001
0000
0100
0000
0010
1000
0000
0010
0000
0000
0100
,  // measure 15
0001
0100
0010
0100
0010
1000
0100
0010
,  // measure 16
0010
0000
0100
0000
0010
0000
0100
0000
0010
0000
1000
0000
0000
0010
0100
0000
,  // measure 17
0010
0000
0100
0000
0010
0000
0000
0010
0000
0000
0000
0020
0000
0000
0000
0000
,  // measure 18
0000
0000
0000
0200
0000
0000
0000
0000
2330
0000
0000
0000
0000
0000
0000
0000
,  // measure 19
0000
0000
0000
3020
0000
0000
0000
0000
0000
0100
0030
0000
0000
0002
0000
0000
,  // measure 20
0000
0000
0000
0000
0020
0003
0000
0000
0000
0030
0200
0000
0000
0000
0000
0000
,  // measure 21
0000
0000
0000
0000
0000
0000
0000
0320
0000
0000
0000
0000
0030
2000
0000
0000
,  // measure 22
0000
3000
0200
0000
0000
0000
0000
0000
0320
0000
0000
0000
0000
0000
0130
0000
,  // measure 23
0000
0000
0020
0000
0000
0000
0000
0000
0000
1000
0000
0000
0030
0200
0000
0000
,  // measure 24
0000
0000
0000
0000
,  // measure 25
0000
0310
0000
0000
0010
0000
0000
0000
0010
0000
0000
0000
0002
0000
0000
0000
,  // measure 26
0000
0000
0000
0023
0000
0000
0000
0000
0130
0000
0000
0000
0000
2000
0000
0000
,  // measure 27
0000
3000
0200
0000
0000
0000
0000
0300
0020
0000
0000
0000
0030
0200
0000
0000
,  // measure 28
0000
0000
0300
0020
0000
0000
0000
0000
0030
1000
0000
0000
0000
0100
0000
0000
,  // measure 29
0020
0000
0000
0000
0000
0030
0100
0000
0000
0002
0000
0000
0000
0020
0003
0000
,  // measure 30
0000
0000
0000
0230
0000
0000
0000
0000
0320
0000
0000
0000
2000
0030
0000
0000
,  // measure 31
0000
3000
0200
0000
0000
0000
0300
0000
0000
0010
0000
0000
0000
0200
0000
0000
,  // measure 32
0000
0000
0000
0000
0000
0000
0000
0000
0000
0000
0000
0000
0000
0000
0000
0010
,  // measure 33
0000
0300
0000
0000
0000
0010
0000
0000
0010
0000
0000
0000
0000
0001
0000
0000
,  // measure 34
0010
0000
0100
0000
0010
0000
0100
0001
0000
1000
0010
0100
0000
0010
0100
0001
,  // measure 35
0000
0000
0010
0000
0100
0000
0010
0001
0001
0001
0000
0010
0000
0100
0000
0010
,  // measure 36
0000
1000
0000
0010
0100
0000
0001
0000
0100
0000
0010
0000
1000
0000
0010
0000
,  // measure 37
0100
0002
0000
0010
1003
0100
0100
0010
0000
0010
0002
0010
0003
0100
0000
0010
,  // measure 38
0000
0002
0010
0003
0100
0000
0010
0000
1000
0000
0010
0000
0100
0000
0002
0000
,  // measure 39
0013
0000
0100
0000
0010
0000
0002
0000
0010
0003
0100
0000
0010
0000
0001
0000
,  // measure 40
0010
0000
1000
0000
0010
0000
0100
0010
0100
0000
1000
0000
0100
0000
0000
0010
,  // measure 41
0000
0010
0100
0000
0010
0000
1000
0000
0010
0110
0000
0100
0200
0001
0000
0010
,  // measure 42
0100
0000
0010
0100
0000
0001
0000
1000
0000
0010
0100
0000
0001
0000
0100
0000
,  // measure 43
0010
0100
0001
0000
0000
1000
0010
0100
0000
0001
0000
0010
0000
0100
0000
0010
,  // measure 44
0000
0001
0000
0100
0000
0000
0010
0000
0001
1000
0000
0000
0200
0000
0010
0010
,  // measure 45
0000
0000
0000
0010
0010
0000
0000
0010
0310
0000
0000
0001
0000
1000
0000
0000
,  // measure 46
0011
0000
0000
0010
0000
0100
0000
0000
0001
0000
0000
1000
0000
0010
0000
0000
,  // measure 47
0100
0000
0000
0001
0000
0000
0100
0010
0000
0100
0000
0000
0001
0000
1000
0000
,  // measure 48
0000
0010
0000
0100
0000
0001
0100
0000
0010
0000
0000
1000
0001
0000
0000
0100
,  // measure 49
0000
0010
0100
0000
0000
0001
1000
0000
0010
0000
0000
0100
0000
0001
0100
0000
,  // measure 50
0000
0010
0000
1000
0000
0010
0000
0100
0000
0001
0000
0100
0000
0000
0010
0100
,  // measure 51
0000
0000
0010
0000
1000
0001
0000
0100
0000
0010
0000
0100
0000
0010
0000
1000
,  // measure 52
0000
0001
0000
0100
0000
0010
0000
0100
0000
0001
0000
1000
0000
0010
0000
0100
,  // measure 53
0000
0001
0000
0000
0000
0000
0000
0001
0000
0000
0000
0000
0001
0000
0000
0000
,  // measure 54
0010
0000
0000
0100
0000
0010
0100
0000
0010
0000
0000
1000
0000
0001
0000
0100
,  // measure 55
0010
0000
0100
0000
0010
0000
0000
1000
0000
0001
0000
0100
0000
0010
0100
0000
,  // measure 56
0001
0000
1000
0000
0000
0010
0000
0100
0000
0001
0000
0100
0010
0000
0000
0100
,  // measure 57
0000
0010
0100
0000
0000
0001
1000
0000
0010
0000
0100
0000
0010
0000
0100
0000
,  // measure 58
0000
0001
1000
0000
0000
0010
0000
0100
0000
0010
0000
1000
0000
0001
0000
0100
,  // measure 59
0000
0010
0000
0100
0000
0001
1000
0000
0000
0010
0000
0100
0000
0010
0000
1000
,  // measure 60
0000
0001
0000
0100
0000
0010
0000
1000
0000
0001
0000
0000
0100
0000
0010
0000
,  // measure 61
0100
0000
0001
0000
1000
0000
0010
0100
0000
0001
0000
0000
0001
0000
0000
0000
,  // measure 62
0000
0020
0000
0000
0000
0000
0000
0030
0200
0000
0000
0000
0000
0320
0000
0000
,  // measure 63
0000
0000
0000
0000
0000
0000
2030
0000
0000
0000
0000
0000
0000
3100
0000
0000
,  // measure 64
0000
0020
0000
0000
0000
0000
0000
0230
0000
0000
0000
0000
0320
0000
0000
0000
,  // measure 65
0000
0000
0000
0000
0000
0000
0000
0000
0000
0030
0200
0000
0000
0000
0000
0000
,  // measure 66
0302
0000
0000
0000
0000
0000
0000
0023
0000
0000
0000
0000
0200
0030
0000
0000
,  // measure 67
0000
0302
0000
0000
0000
0000
0000
0000
0000
1003
0000
0000
0000
0200
0000
0000
,  // measure 68
0000
0320
0000
0000
0000
0000
0000
0000
0000
0000
0000
0000
0000
0000
0000
0000
,  // measure 69
0000
0030
0100
0000
0000
0100
0000
0000
0100
0000
0000
0100
0000
0100
0000
0000
,  // measure 70
0000
0020
0000
0000
0000
0000
0000
0030
1000
0000
0000
0000
0100
0000
0000
0000
,  // measure 71
0020
0000
0000
0000
0000
0030
0000
0002
0000
0000
0000
0000
0000
0000
0000
0003
,  // measure 72
0010
0000
0200
0000
0000
0000
0000
0320
0000
0000
0000
0000
0000
0000
0030
1000
,  // measure 73
0000
0200
0000
0000
0000
0000
0320
0000
0000
0000
0000
0030
0200
0000
0000
0000
,  // measure 74
0300
0020
0000
0000
0000
0000
0230
0000
0000
0000
0000
0300
0010
0000
0000
0000
,  // measure 75
0000
1000
0000
0000
0100
0000
0000
0020
0000
0000
0000
0000
0000
0100
0030
0000
,  // measure 76
0000
0002
0000
0000
0000
0000
0000
0000
0000
0000
0000
0000
0000
0000
0000
0000
,  // measure 77
0010
0003
0000
0000
0010
0100
1000
0000
0100
0000
0010
0000
0010
0000
0000
0010
;
